#TITLE:The Beginning;
#SUBTITLE:OLD STEPS;
#ARTIST:DJ Doo;
#TITLETRANSLIT:;
#SUBTITLETRANSLIT:;
#ARTISTTRANSLIT:;
#CREDIT:Roxor Games;
#BANNER:thebeginning-banner.png;
#BACKGROUND:thebeginning.png;
#LYRICSPATH:;
#CDTITLE:;
#MUSIC:DJDoo- TheBeginning.ogg;
#MUSICBYTES:0;
#MUSICLENGTH:120.581;
#OFFSET:-0.110;
#SAMPLESTART:37.560;
#SAMPLELENGTH:12.000;
#SELECTABLE:YES;
#BPMS:0.000=132.200;
#STOPS:;
#BGCHANGES:;
#FIRSTBEAT:16.000;
#LASTBEAT:258.000;

//---------------dance-single - BASIC----------------
#NOTES:
     dance-single:
     BASIC:
     easy:
     4:
     0.258,0.348,0.340,0.008,0.000:






              
0000
0000
0000
0000
,              
0000
0000
0000
0000
,              
0000
0000
0000
0000
,              
0000
0000
0000
0000
,              
0000
0010
1001
0000
,              
0100
0000
0001
0000
,              
0010
0000
0100
0010
,              
0000
0000
0020
0030
,              
0100
1001
0000
0010
,               
0100
0010
1000
0100
,               
0001
0100
0010
0001
,               
0100
0001
0010
0100
,               
0001
1000
0100
0001
,               
0010
0100
0001
0010
,               
0100
0010
1001
0100
,               
0001
1000
0100
1000
,               
0010
0100
1010
0001
,               
0100
1000
0010
0001
,               
0010
0100
1000
0100
,               
0010
1000
0100
0010
,               
0001
0100
0010
0001
,               
0100
0010
0100
0010
,               
0001
1000
0011
1000
,               
1100
0010
0011
0010
,               
1010
0010
0011
0000
,               
0100
0000
0010
0000
,               
0100
0000
0001
0000
,               
1000
0000
0010
0000
,               
0100
0000
1010
0000
,               
0001
0000
0100
0000
,               
0010
0000
0100
0000
,               
1000
0000
0001
0000
,               
0010
0000
0101
0000
,               
0001
0000
0100
0000
,               
0001
0000
0100
0000
,               
1000
0000
0100
0010
,               
1000
0001
0100
0000
,               
0011
0000
1100
0000
,               
0110
0000
0011
0000
,               
0110
0000
1100
0000
,               
0011
0000
0101
0000
,               
1001
0000
1010
0000
,               
0101
0000
0110
0000
,               
0011
0000
1100
0000
,               
1010
0000
0101
0000
,               
1001
0000
1010
0000
,               
0110
0000
0100
0000
,               
0010
0000
1000
0010
,               
1000
0001
1001
0000
,               
0000
0100
0010
1000
,               
0000
0010
0001
0100
,               
0000
0001
1000
0100
,               
0000
0010
1000
0001
,               
0000
0100
0001
1000
,               
0000
0001
1000
0100
,               
0000
0100
1000
0010
,               
0000
0100
0001
0100
,               
0000
1000
0010
0100
,               
0000
0010
0100
0101
,               
0000
0100
0010
1010
,               
0000
0001
1000
0101
,               
0010
1010
0100
0101
,               
0000
0100
0001
0101
,               
0001
1010
0100
0101
,               
0010
1001
1001
0000;

//---------------dance-single - ANOTHER----------------
#NOTES:
     dance-single:
     ANOTHER:
     medium:
     6:
     0.340,0.374,0.373,0.025,0.000:





              
0000
0000
0000
0000
,              
0000
0000
0000
0000
,              
0000
0000
0000
0000
,              
0000
0000
0000
0000
,              
0000
0010
1001
0010
,              
0100
0010
0001
0100
,              
0010
0001
0100
0010
,              
0001
0100
0020
0030
,              
0100
2002
3003
0010
,               
0100
0010
1000
0100
,               
0001
0100
0010
0001
,               
0100
0001
0010
0100
,               
0001
1000
0100
0001
,               
0010
0100
0001
0010
,               
0100
0010
1001
0100
,               
0001
1000
0100
1000
,               
0010
0100
1010
0001
,               
0100
1000
0010
0001
,               
0010
0100
1000
0100
,               
0010
1000
0100
0010
,               
0001
0100
0010
0001
,               
0100
0010
0100
0010
,               
0001
1000
0011
1000
,               
1100
0010
0011
0010
,               
1010
0010
0011
0000
,               
0100
0001
0010
1000
,               
0100
1000
0001
0010
,               
1000
0100
0010
0001
,               
0100
0100
1010
0100
,               
0001
0010
0100
0001
,               
0010
1000
0100
0010
,               
1000
0100
0001
0010
,               
0010
1000
0101
0100
,               
0001
0010
0100
1000
,               
0001
0100
0100
0001
,               
1000
0010
0100
0010
,               
1000
0001
0100
0010
,               
0011
0100
1100
0010
,               
0110
0001
0011
0100
,               
0110
1000
1100
0001
,               
0011
0100
0101
0001
,               
1001
0010
1010
0100
,               
0101
1000
0110
0001
,               
0011
0100
1100
0010
,               
1010
0100
0101
0001
,               
1001
1000
1010
0100
,               
0110
0001
0110
1000
,               
0011
0100
1001
0010
,               
1001
0001
1001
0010
,               
0001
0100
0010
1000
,               
0100
0010
0001
0100
,               
1000
0001
1000
0100
,               
0100
0010
1000
0001
,               
0100
0100
0001
1000
,               
0001
0001
1000
0100
,               
1000
0100
1000
0010
,               
0100
0100
0001
0100
,               
0010
1000
0010
0100
,               
0001
0010
0100
0101
,               
1000
0100
0010
1010
,               
0100
0001
1000
0101
,               
0010
1010
0100
0101
,               
0001
0100
0001
0101
,               
0001
1010
0100
0101
,               
0010
1001
1001
0000;

//---------------dance-single - MANIAC----------------
#NOTES:
     dance-single:
     MANIAC:
     hard:
     6:
     0.412,0.374,0.755,0.141,0.000:


              
0000
0000
0000
0000
,              
0000
0000
0000
0000
,              
0000
0000
0000
0000
,              
0000
0000
0000
0000
,              
0000
0010
1001
0010
,              
0100
1010
0001
0100
,              
0011
0001
0100
1010
,              
0001
0100
0020
0030
,              
0100
2002
3003
0010
,               
0101
0010
1010
0100
,               
1001
0100
0110
0001
,               
0110
0001
1010
0100
,               
1001
1000
0110
0001
,               
0011
0100
0101
0010
,               
0110
0010
1001
0100
,               
0011
1000
0101
1000
,               
1010
0100
1010
0001
,               
0110
1000
0110
0001
,               
0011
0100
1100
0100
,               
0110
1000
1100
0010
,               
0011
0100
1010
0001
,               
1100
0010
0110
0010
,               
0011
1000
0011
1000
,               
1100
0010
0101
0010
,               
1100
0010
0101
1000
,               
0100
0001
0110
1000
,               
0101
1000
0011
0010
,               
1100
0100
1010
0001
,               
0110
0100
1010
0100
,               
0011
0010
1100
0001
,               
0110
1000
0101
0010
,               
1100
0100
0011
0010
,               
1010
1000
0101
0100
,               
0101
0010
0110
1000
,               
1001
0100
0110
0001
,               
1100
0010
0101
0010
,               
1100
0001
0110
0010
,               
0011
0100
1100
0010
,               
0110
0001
0011
0100
,               
0110
1000
1100
0001
,               
0011
0100
0101
0001
,               
1001
0010
1010
0100
,               
0101
1000
0110
0001
,               
0011
0100
1100
0010
,               
1010
0100
0101
0001
,               
1001
1000
1010
0100
,               
0110
0001
0110
1000
,               
0011
0100
1001
0010
,               
1001
0001
1001
0010
,               
0002
0100
0013
1000
,               
0200
0010
0301
0100
,               
2000
0001
3100
0100
,               
0200
0010
1300
0001
,               
0200
0010
0301
1000
,               
0002
0100
1003
0100
,               
2000
0100
3010
0020
,               
0100
0130
0001
0200
,               
0010
1300
0010
0200
,               
0001
0310
0100
0101
,               
1000
0110
0010
1010
,               
0100
0101
1000
0101
,               
0020
1000
0130
0200
,               
0001
0310
0002
0100
,               
1003
2000
0100
3001
,               
0010
1001
1001
0000
,;

//---------------dance-double - ANOTHER----------------
#NOTES:
     dance-double:
     ANOTHER:
     medium:
     4:
     0.275,0.294,0.149,0.017,0.004:


              
00000000
00000000
00000000
00000000
,              
00000000
00000000
00000000
00000000
,              
00000000
00000000
00000000
00000000
,              
00000000
00000000
00000000
00000000
,              
00010000
00000000
00000000
00000000
,              
00001000
00000000
00000000
00000000
,              
00001000
00000000
00001000
00000000
,              
00001000
00001000
00001000
00000000
,              
00000000
00000000
00020020
00000000
00000000
00000000
00000000
00000000
00000000
00000000
00000000
00000000
00000000
00000000
00000000
00000000
00000000
00000000
00000000
00000000
00000000
00000000
00000000
00000000
00000000
00000000
00000000
00000000
00000000
00000000
00000000
00000000
00000000
00000000
00000000
00000000
00000000
00000000
00000000
00000000
00000000
00000000
00000000
00000000
00000000
00000000
00000000
00000000
00030030
00000000
00000000
00000000
00000000
00000000
00000000
00000000
00000000
00000000
00000000
00000000
00000000
00000000
00000000
00000000
00000000
00000000
00000000
00000000
00000000
00000000
00000000
00000000
00000000
00000000
00000000
00000000
00000000
00000000
00000000
00000000
00000000
00000000
00000000
00000000
00000000
00000000
00000000
00000000
00000000
00000000
00000000
00000000
00000000
00000000
00000000
00000000
,               
00001000
00000100
00010000
00000010
,               
00001000
00000100
00010000
00000010
,               
00010000
00001000
00010000
00000010
,               
00001000
00000010
00000010
00001000
,               
00000100
00000010
00000001
00001000
,               
00000100
00000001
00001000
00000001
,               
00000100
00000010
00000100
00001000
,               
00000001
00000100
00001000
00000100
,               
00000010
00000000
00001000
00000000
,               
00001100
00000000
00000010
00000000
,               
00000110
00000000
00001000
00000000
,               
00011000
00000000
00001000
00000000
,               
00011000
00100000
00010000
00001000
,               
00000100
00100000
00001000
00100000
,               
00010000
00000100
00100000
00000100
,               
00010000
01000000
00010000
00001000
,               
00100000
00001000
00010000
01000000
,               
00100000
00010000
00100000
00001000
,               
00001000
01000000
00010000
00100000
,               
00100000
00100000
01000000
00010000
,               
00000000
01000000
01000000
01010000
,               
00000000
00010000
00010000
01010000
,               
00000000
00100000
00100000
01100000
,               
00000000
01000000
01000000
01001000
,               
00000000
00100000
00100000
00101000
,               
00000000
00010000
00010000
00110000
,               
00000000
01000000
01000000
01001000
,               
00000000
00000100
00000100
00010100
,               
00000000
00101000
00101000
00010100
,               
00000000
00001000
00000100
00010000
,               
00001000
00100000
00010000
00001000
,               
00000100
00001000
00000100
00010000
,               
00000100
00000010
00001000
00000100
,               
00010000
00001000
00001000
00000100
,               
00000010
00000100
00000100
00010000
,               
00000100
00000100
00000010
00001000
,               
00000001
00000100
00000001
00000010
,               
00001000
00000100
00000010
00000100
,               
00000001
00000010
00001000
00000010
,               
00001000
00000010
00001000
00000100
,               
00010000
00001000
00000100
00001000
,               
00000100
00010000
00000010
00001000
,               
00000010
00000100
00010000
00001000
,               
00010000
00001000
00010000
00000100
,               
00001000
00010000
00001000
00100000
,               
00001000
00000100
00100000
00100000
,               
00100000
00010000
00001000
00001000
,               
00001000
00100000
01000000
01000000
,               
01000000
00001000
00010000
00010000
,               
00010000
00001000
00100000
00100000
,               
00100000
01000000
00010000
00010000
,               
00010000
01000000
10000000
10000000
,               
10000000
01000000
00100000
00100000
,               
00100000
10000000
00010000
00010000
,               
00010000
01000000
00100000
10010000
,               
10010000
00000000
00100000
00000000
,;

//---------------dance-solo - ANOTHER----------------
#NOTES:
     dance-solo:
     ANOTHER:
     medium:
     4:
     0.276,0.294,0.158,0.017,0.004:

              
000000
000000
000000
000000
,              
000000
000000
000000
000000
,              
000000
000000
000000
000000
,              
000000
000000
000000
000000
,              
000100
000000
000000
000000
,              
000010
000000
000000
000000
,              
000010
000000
000010
000000
,              
000010
000010
000010
000000
,              
000000
020020
000000
000000
000000
000000
000000
000000
000000
000000
000000
000000
000000
000000
000000
000000
000000
000000
000000
000000
000000
000000
000000
000000
030030
000000
000000
000000
000000
000000
000000
000000
000000
000000
000000
000000
000000
000000
000000
000000
000000
000000
000000
000000
000000
000000
000000
000000
,               
001000
000100
010000
000010
,               
001000
000100
010000
000010
,               
010000
001000
010000
000010
,               
001000
001000
001000
100000
,               
010000
001000
000100
100000
,               
010000
000100
100000
000100
,               
010000
001000
010000
100000
,               
000100
000100
001000
000100
,               
000010
000000
001000
000000
,               
001100
000000
000010
000000
,               
000110
000000
001000
000000
,               
011000
000000
000010
000000
,               
000110
001000
000100
000010
,               
000001
001000
000010
001000
,               
000100
000001
001000
000001
,               
000100
010000
000100
000010
,               
001000
000010
000100
010000
,               
001000
000100
001000
000010
,               
000010
010000
000100
001000
,               
001000
001000
010000
000100
,               
000000
010000
010000
010100
,               
000000
000100
000100
010100
,               
000000
001000
001000
011000
,               
000000
010000
010000
010010
,               
000000
001000
001000
001010
,               
000000
000100
000100
001100
,               
000000
010000
010000
010010
,               
000000
000001
000001
000101
,               
000000
001010
001010
000101
,               
000000
000010
000001
000100
,               
000010
001000
000100
000010
,               
000001
001000
000100
010000
,               
000100
000010
001000
000100
,               
010000
001000
001000
000100
,               
000010
000100
000100
010000
,               
000100
010000
001000
100000
,               
000100
010000
000100
001000
,               
100000
010000
001000
010000
,               
000100
001000
100000
001000
,               
100000
000010
001000
000100
,               
010000
001000
000100
001000
,               
000100
010000
000010
001000
,               
000010
000100
010000
001000
,               
010000
000010
000100
000001
,               
000010
000100
000010
001000
,               
000010
000001
001000
001000
,               
001000
000100
000010
000010
,               
000010
001000
010000
010000
,               
010000
000010
000100
000100
,               
000100
000010
001000
001000
,               
001000
010000
000100
000100
,               
000100
010000
100000
100000
,               
100000
010000
001000
001000
,               
001000
100000
000100
000100
,               
000100
010000
001000
100100
,               
100100
000000
100001
000000;
